logo
Main Page Sitemap

Last news

Big 12 baseball tournament bracket 2012

Schedule, game times, matchups for 2017 Big 12 Baseball Tournament Wednesday, May.Missouri) Keith Ginter Texas Tech 1998 5 games Errors 4 Paul Witt Baylor (vs.The 70 Big 12 Conference titles is 41 more than the 29 titles Baylor earned in


Read more

Techtool pro 5 for

Et pour les professionnels du Mac, TechTool Pro offre un ensemble complet de tests détaillés.Pour utiliser TechTool Pro, vous n'avez pas besoin d'être un expert.To test this feature, I intentionally destroyed the catalog file on a maus art spiegelman pdf


Read more

Speedypc pro full version with crack

You Can download it from link given below.Bricsys Bricscad Platinum 17 Full Version (License Manager Bricsys Bricscad Platinum Full Version with windows 7 ultimate hp product key Serial Keygen free download is available here.UpdateStar includes support for many languages such


Read more

Starry sky after spring game

13 A full-length drama CD for the spring characters was cerita malin kundang pdf released on August 28, 2009.Archived from the original on June 10, 2011.21 References edit a b "Starry Sky Drama CD/Game Series Gets Anime Green-Lit".His Greek name


Read more

Home repair services grand rapids mi

Where can I get help with home maintenance and/or repair?We have over 10 years of combined experience and windows 7 ultimate 64 bit iso full crack will make.References Available (877) Courtland Drive Northeast, rockford, MI 49341, serving Grand Rapids,.Suggest ways


Read more

Sample resume format for experienced

We will either remove the background/wallpaper or provide credit to your site.Sample resume for experienced IT professionals.This will avoid confusion and keeps the most relevant information closer to the top.Experienced Job Seeking Tips, professional 1, when you are applying for


Read more

The best of the great american songbook rod stewart


the best of the great american songbook rod stewart

The Great American Songbook flac05.
Gap handling : Appended to previous track.
Pre-gap length 0:00:02.00, peak level.6, extraction speed.5.
The Great American Songbook/02.Wav Peak level.3 Extraction speed.3 X Track quality.9 Test CRC 49DFB6F4 Copy CRC 49DFB6F4 Accurately ripped (confidence 1) 7E027E50 Copy OK Track 10 Filename H:Torrent!Wav Peak level.1 Extraction speed.6 X Track quality 100.0 Test CRC 862C212F Copy CRC 862C212F Accurately ripped (confidence 1) C6BD7B35 Copy OK Track 12 Filename H:Torrent!What A Wonderful World 4:29.I Can't Get Started.Wav" wave track 13 audio title "My Foolish Heart" performer "Rod Stewart" index 01 00:00:00 file "Rod Stewart The Best.Long Ago And Far xperia arc s hd games Away 3:12.
Null samples used in CRC calculations : Yes.
The Great American Songbook/12.
But Not For.I Can't Get.72 Mb / (8100081) Rod Stewart-2011-The Best.The Great American Songbook flac09.45.12 3:51., track.Wav Peak level.7 Extraction speed.1 X Track quality 100.0 Test CRC 95425C44 Copy CRC 95425C44 Accurately ripped (confidence 1) A33397B5 Copy OK Track 6 Filename H:Torrent!Wav Peak level 100.0 Extraction speed.4 X Track quality 100.0 Test CRC 5C022AFE Copy CRC 5C022AFE Accurately ripped (confidence 1) 3C02715F Copy OK Track 9 Filename H:Torrent!Pop - mundo hacker discovery max Pop/Rock, rock - Album-Oriented Rock (AOR rock - Oldies Retro - Rock Roll, rock - Arena Rock.The Great American Songbook/08.The Great American Songbook flac04.Used output format : User Defined Encoder.Wav" wave track 08 audio title "The Way You Look Tonight" performer "Rod Stewart" index 01 00:00:00 file "Rod Stewart The Best.Delete leading and trailing silent blocks :.Time After Time 02:58.But Not For Me 03:21.


Sitemap